<?xml version="1.0" standalone="no"?>
<!DOCTYPE svg PUBLIC "-//W3C//DTD SVG 1.1//EN" "http://www.w3.org/Graphics/SVG/1.1/DTD/svg11.dtd" >
<svg xmlns="http://www.w3.org/2000/svg">
<metadata>Generated by IcoMoon</metadata>
<defs>
<font id="grazia-font" horiz-adv-x="1024">
<font-face units-per-em="1024" ascent="960" descent="-64" />
<missing-glyph horiz-adv-x="1024" />
<glyph unicode="&#x20;" horiz-adv-x="512" d="" />
<glyph unicode="&#xe600;" glyph-name="logo" horiz-adv-x="3235" d="M1870.308 924.457h327.044c-78.089-327.176-156.708-653.982-234.718-981.211h92.617c10.452 0 20.64-0.582 29.876 1.058 33.263 6.245 56.205 27.388 72.082 53.242 15.983 25.986 25.88 58.957 29.876 97.221 4.022 38.899 1.455 81.926 2.382 125.774h10.32v-289.732h-337.020c76.052 327.335 152.183 654.511 228.552 981.502h-89.918c-9.95 0-19.952 0.741-28.817-1.085-30.775-6.166-50.198-32.813-62.794-58.904-12.993-26.965-21.963-59.778-26.409-96.824-4.446-36.729-2.487-78.724-3.811-120.481-3.175 0.185-5.557-0.582-8.891-0.344-1.614 94.76-0.238 192.617-0.662 288.753-0.079 0.476-0.079 0.979 0.291 1.032zM2447.179 924.457h177.481v-12.173h-41.863c0.423-322.678 0.265-645.884 0.265-969.038 13.231-0.767 27.864-0.106 41.598-0.37v-12.093h-177.825v12.12h41.916v969.382h-41.916v11.114c0 0.503 0 1.006 0.344 1.058zM808.308 911.199v-480.179c28.103-2.117 48.637 7.224 64.197 20.693 15.586 13.496 27.52 29.929 35.671 50.701 16.195 41.069 22.89 94.999 26.118 148.664 1.641 27.944 2.038 57.767-1.006 83.964-5.98 51.442-18.603 97.512-39.481 134.745-9.659 17.174-22.943 38.714-43.927 42.18-12.728 2.038-28.394-0.873-41.175 0.318-0.397-0.079-0.397-0.556-0.397-1.085zM673.458 924.457h182.614c20.323 0 38.396-0.82 54.538-6.43 29.241-10.135 51.866-31.357 68.616-55.385 33.66-48.32 52.13-117.624 48.743-201.905-1.561-38.343-8.309-77.057-17.491-108.283-9.288-31.543-22.89-61.233-41.201-83.911-15.454-19.291-35.909-37.788-67.928-40.063-3.916-0.238-9.050 0.741-12.331-2.858 3.017-5.372 9.659-3.44 13.734-3.943 15.348-1.694 26.7-7.806 37.417-15.348 13.893-9.817 24.98-22.069 34.983-36.094 5.266-7.356 9.844-14.342 13.363-22.519 3.652-8.309 5.689-17.491 7.542-28.156 3.519-20.005 5.398-41.439 6.854-65.467 4.207-66.817 3.414-140.99 8.6-208.653 1.614-21.196 3.123-46.309 10.638-61.445 3.281-6.616 10.029-11.723 17.888-12.834 14.766-2.090 24.054 13.443 29.796 23.207 0.397 0.582 1.667 4.551 3.44 2.143 3.599-1.111 0.635-6.245-0.344-8.918-7.727-21.408-20.429-43.054-36.676-55.411-10.32-7.78-23.683-13.231-39.508-12.49-14.792 0.635-25.8 7.78-35.009 16.75-17.253 16.883-28.261 42.366-34.321 71.13-6.033 28.949-6.298 63.615-7.859 98.624-2.276 49.96-1.27 106.324-3.758 156.523-0.794 16.327-3.467 32.098-6.166 46.785-5.451 29.267-13.443 58.031-26.144 79.756-6.457 11.035-14.554 21.487-27.415 24.98-12.808 3.467-29.108 4.207-47.367 3.943-0.82-157.528-0.132-316.697-0.397-474.887h41.201c1.588-2.752 0.265-8.521 0.741-12.464h-182.905v12.464h46.997c-0.238 322.916 0.423 646.731-0.37 969.038h-40.831v11.114c-0.053 0.45-0.053 0.953 0.318 1.006zM276.951 418.159c-14.528 0.794-30.537 0.132-45.62 0.397-1.35 2.593-0.688 9.209-0.318 12.464h187.669v-12.464h-46.997c-0.609-161.286-0.37-325.086-0.318-487.404 0-1.852 0.82-5.689-1.032-6.404-0.609 0.556-3.149-0.741-4.472 0-1.058 0.556-1.958 6.166-2.408 7.859-2.831 11.511-4.763 22.651-8.6 32.151-4.869 12.12-12.225 24.663-30.828 22.519-13.496-1.614-24.557-12.675-32.972-20.402-17.994-16.248-35.803-37.92-59.354-47.87-13.178-5.583-30.537-5.187-46.017-1.799-28.87 6.404-49.405 21.487-66.896 39.719-34.771 36.2-56.391 86.742-74.147 141.836-18.074 56.073-28.5 116.671-36.041 181.132-7.489 64.726-11.246 139.455-6.483 208.653 4.657 67.531 14.66 131.94 27.838 190.077 13.099 58.19 30.908 113.099 56.258 160.466 12.173 22.81 26.303 44.932 44.588 62.874 18.444 17.941 40.937 34.268 71.421 36.412 31.781 2.302 48.187-8.759 61.709-25.324 8.494-10.347 15.348-24.239 30.564-27.891 23.339-5.583 31.596 17.227 35.353 36.094 0.318 1.429 0.82 3.969 1.376 6.060 0.397 1.667-0.079 4.816 3.44 3.599 4.34 0.926 2.62-5.372 2.752-8.6 4.737-109.209 8.018-218.708 13.019-328.737 0.079-1.217 0.556-3.625 0.397-5.345-0.132-0.953 0.767-4.049-2.117-3.228-3.652-1.244-3.467 2.646-3.784 4.313-3.123 16.645-5.557 35.75-8.203 53.242-9.288 60.624-20.72 120.085-37.417 172.612-10.796 33.792-24.795 68.986-47.023 92.114-10.452 10.902-28.208 24.186-47.737 19.661-16.883-3.811-25.853-20.72-33.263-35.724-15.030-30.484-24.424-68.087-32.284-107.542-7.833-39.799-13.549-81.053-18.179-122.202-4.763-42.339-8.6-85.605-10.638-130.034-2.038-44.509-5.583-90.394-3.414-137.576 2.117-46.547 2.54-91.373 5.822-135.036 6.483-86.637 14.395-171.924 36.729-244.085 5.319-17.306 11.617-35.089 19.926-50.040 7.78-14.237 19.794-29.743 35.3-33.607 20.64-5.107 35.591 9.764 43.953 22.81 9.262 14.607 14.66 32.654 18.867 50.781 8.785 37.655 9.579 84.017 9.579 131.146v282.323zM1360.994 231.946h132.442c-21.381 128.87-42.022 258.56-64.117 386.663-22.44-129.24-45.885-257.422-68.325-386.663zM1473.589 936.973c55.729-331.278 110.452-663.746 166.102-995.13h37.020c1.561-2.752 0.291-8.521 0.662-12.49h-172.956v12.49h37.444c-14.925 91.585-31.066 184.943-46.705 276.898-44.959 0.873-91.4 0.106-136.914 0.397-16.38-92.247-32.416-184.943-48.717-277.295h48.346v-12.49h-104.631v12.12c13.575 0.053 26.647 0.582 40.46 0.37 60.545 331.119 119.555 663.852 179.889 995.13zM2919.023 233.402h132.495c-21.434 128.87-42.128 258.454-64.223 386.663-22.466-129.24-45.885-257.422-68.272-386.663zM3031.54 938.376c55.729-331.225 110.505-663.746 166.076-995.077h37.444v-12.517h-172.638v12.517h37.391c-14.898 91.559-30.987 184.916-46.626 276.898-44.88 0.873-91.188 0.132-136.597 0.37-17.121-91.638-32.601-185.022-49.113-277.269h48.425c-0.238-4.022 0.503-9.050-0.37-12.517h-104.287v12.12c13.628 0.053 26.621 0.609 40.513 0.397 60.466 331.119 119.476 663.905 179.783 995.077z" />
<glyph unicode="&#xe601;" glyph-name="FB" d="M71.903-85.333c-39.624 0-71.903 32.278-71.903 71.947v880.106c0 39.669 32.278 71.947 71.903 71.947h880.195c39.624 0 71.903-32.278 71.903-71.947v-880.106c0-39.669-32.278-71.947-71.903-71.947zM717.245-50.695h234.808c20.569 0 37.309 16.74 37.309 37.309v880.106c0 20.569-16.74 37.309-37.309 37.309h-880.15c-20.569 0-37.265-16.74-37.265-37.309v-880.106c0-20.569 16.696-37.309 37.265-37.309h456.526zM682.607-68.014v383.154c0 9.528 7.791 17.319 17.363 17.319h113.397l14.781 114.688h-128.178c-9.572 0-17.363 7.747-17.363 17.319v95.277c0 41.939 10.374 90.023 91.359 90.023l61.752 0.045v100.664c-21.326 1.87-57.745 4.141-97.903 4.141-109.39 0-174.703-67.317-174.703-180.090v-110.058c0-9.572-7.747-17.319-17.319-17.319h-111.661v-114.688h111.616c9.572 0 17.319-7.791 17.319-17.319v-383.154z" />
<glyph unicode="&#xe602;" glyph-name="TW" horiz-adv-x="1240" d="M397.736-85.333c-137.821 0-271.988 39.611-388.013 114.72-8.288 5.351-11.811 15.727-8.483 24.993 3.328 9.397 12.333 14.944 22.318 13.965 104.736-12.399 214.301 11.028 304.551 67.41-89.858 21.339-163.924 88.618-192.832 179.716-2.284 7.178-0.653 15.009 4.307 20.621s12.529 8.092 19.707 6.787c5.025-0.979 10.049-1.827 15.074-2.414-76.48 47.963-126.271 133.645-126.271 228.658 0 7.504 3.981 16.053 10.376 19.838 6.46 3.85 14.422 5.547 20.947 1.827 10.18-5.677 20.686-10.506 31.584-14.552-38.893 47.572-60.884 107.803-60.884 171.232 0 47.637 12.529 94.426 36.152 135.276 3.459 6.004 9.658 9.919 16.51 10.506 6.852 0.326 13.639-2.284 18.011-7.7 115.634-143.042 283.799-232.899 464.755-249.279-1.37 10.963-2.023 22.122-2.023 33.346 0 148.327 119.68 269.051 266.767 269.051 69.433 0 136.712-27.669 186.241-76.35 48.812 10.898 95.274 29.496 138.343 55.207 7.635 4.568 17.097 3.85 23.884-1.631s9.527-14.683 6.852-23.101c-10.898-34.39-28.517-65.974-51.552-92.99 19.185 5.743 37.849 12.66 56.055 20.817 8.614 3.85 18.663 1.501 24.667-5.743 6.069-7.243 6.656-17.619 1.436-25.45-32.498-49.007-72.434-91.62-118.701-126.923 0.196-7.178 0.326-14.356 0.326-21.6 0.131-356.951-269.247-726.236-720.102-726.236zM107.216 23.253c90.51-43.395 189.504-66.105 290.521-66.105 424.361 0 678.077 347.62 678.077 683.82 0 10.441-0.261 20.817-0.783 31.062-0.326 7.178 3.067 14.030 8.81 18.206 26.755 19.577 51.487 41.764 73.674 66.366-25.319-7.113-51.096-12.268-77.459-15.466-9.854-1.175-19.12 4.698-22.318 14.161-3.263 9.527 0.587 19.968 9.071 25.124 29.953 18.076 55.076 42.612 73.609 71.586-34.129-15.074-69.759-26.363-106.694-33.672-7.113-1.501-14.422 0.914-19.446 6.265-42.286 45.484-102.061 71.521-163.989 71.521-123.856 0-224.612-101.604-224.612-226.504 0-17.554 1.892-34.912 5.743-51.618 1.501-6.526-0.065-13.312-4.242-18.467-4.372-5.090-10.702-7.374-17.293-7.504-192.049 9.593-372.743 97.297-500.711 241.709-11.159-27.212-16.901-56.512-16.901-86.269 0-75.893 37.392-146.37 99.907-188.525 7.831-5.286 11.289-15.139 8.418-24.145-2.871-9.071-10.506-16.249-20.751-14.813-29.757 0.979-59.253 7.048-87.117 17.75 13.9-95.144 84.311-171.885 177.693-190.744 9.593-1.958 16.575-10.245 16.901-20.099 0.392-9.854-6.069-18.663-15.466-21.208-27.016-7.439-55.076-10.506-83.658-9.136 36.87-74.718 112.371-123.856 197.074-125.488 8.94-0.196 16.706-6.004 19.577-14.487 2.806-8.549 0.065-17.945-6.982-23.492-84.311-66.561-184.283-104.279-290.651-109.826z" />
<glyph unicode="&#xe603;" glyph-name="fullscr" d="M1022.486 926.513c-2.003 4.808-5.832 8.637-10.641 10.641-2.404 0.979-4.942 1.514-7.524 1.514h-366.191c-10.863 0-19.679-8.815-19.679-19.679s8.815-19.679 19.679-19.679h318.687l-314.502-314.502c-7.702-7.658-7.702-20.124 0-27.826 3.873-3.829 8.86-5.743 13.935-5.743 4.986 0 10.062 1.914 13.891 5.743l314.502 314.502v-318.687c0-10.863 8.771-19.723 19.634-19.723s19.723 8.86 19.723 19.723v366.191c0 2.582-0.534 5.12-1.514 7.524zM385.87-45.931h-318.687l314.502 314.413c7.658 7.702 7.658 20.168 0 27.871-7.702 7.658-20.168 7.658-27.871 0l-314.457-314.457v318.642c0 10.863-8.815 19.679-19.679 19.679-10.819 0-19.679-8.815-19.679-19.679v-366.191c0-2.582 0.534-5.12 1.558-7.524 1.959-4.808 5.832-8.637 10.641-10.641 2.404-0.979 4.897-1.514 7.48-1.514h366.191c10.863 0 19.679 8.815 19.679 19.679s-8.771 19.723-19.679 19.723z" />
<glyph unicode="&#xe604;" glyph-name="share" d="M999.993-85.333h-975.986c-13.255 0-24.007 8.875-24.007 19.854v650.126c0 10.98 10.752 19.854 24.007 19.854h249.003c13.255 0 24.007-8.875 24.007-19.854 0-10.923-10.752-19.797-24.007-19.797h-224.939v-610.475h927.972v610.475h-233.813c-13.255 0-24.007 8.875-24.007 19.797 0 10.98 10.695 19.854 24.007 19.854h257.82c13.198 0 23.95-8.875 23.95-19.854v-650.126c0-10.98-10.752-19.854-24.007-19.854zM731.25 737.394l-203.378 194.958c-4.21 4.039-10.012 6.315-15.986 6.315-6.030 0-11.776-2.276-15.986-6.315l-203.15-194.503c-8.647-8.306-8.59-21.732 0.284-29.924 8.704-8.135 23.040-8.135 31.63 0.341l164.978 157.924v-556.43c0-11.662 10.012-21.106 22.414-21.106 12.345 0 22.357 9.444 22.357 21.106v556.089l164.921-157.98c4.38-4.21 10.24-6.315 15.986-6.315 5.689 0 11.321 2.048 15.644 6.030 8.875 8.192 8.988 21.504 0.284 29.81z" />
<glyph unicode="&#xe605;" glyph-name="down-arrow" d="M20.041 709.701c0 5.061 1.872 10.094 5.5 13.897 7.402 7.695 19.397 7.695 26.8 0l459.6-478.647 459.688 478.647c7.461 7.695 19.397 7.695 26.8 0 7.402-7.636 7.402-20.158 0-27.853l-473.029-492.485c-3.54-3.716-8.397-5.764-13.458-5.764-4.974 0-9.772 2.048-13.4 5.764l-473.029 492.515c-3.599 3.862-5.471 8.894-5.471 13.926z" />
<glyph unicode="&#xe606;" d="M0 902.008h1024v-29.257h-1024v29.257z" />
<glyph unicode="&#xe607;" d="M0 667.951h1024v-29.257h-1024v29.257z" />
<glyph unicode="&#xe608;" d="M0 433.894h1024v-29.257h-1024v29.257z" />
<glyph unicode="&#xe609;" d="M71.095 249.252l62.025-124.635 61.44 124.635h32.475v-184.057h-23.113v151.259l-63.195-128.117h-15.506l-64.073 130.165v-153.307h-23.113v184.057h33.061zM344.357 249.252h113.225v-19.895h-90.112v-61.762h84.846v-19.602h-84.846v-62.581h90.112v-20.217h-113.225v184.057zM594.505 249.252l91.253-147.778v147.778h23.142v-184.057h-25.746l-92.745 149.826v-149.826h-23.376v184.057h27.472zM845.531 249.252v-117.643c0-17.145 4.272-29.55 12.844-37.157s19.895-11.381 33.938-11.381 25.366 3.774 33.938 11.381 12.844 20.012 12.844 37.157v117.643h23.142v-117.643c0-22.967-6.349-40.346-19.017-52.048s-29.725-17.554-51.083-17.554c-21.328 0-38.298 5.822-50.907 17.554-12.581 11.703-18.871 29.082-18.871 52.048v117.643h23.172z" />
<glyph unicode="&#xe60a;" glyph-name="right-arrow" horiz-adv-x="561" d="M28.364-77.081c-5.192 0-10.329 1.913-14.264 5.684-7.924 7.597-7.924 19.838 0 27.435l490.167 470.656-490.167 470.656c-7.924 7.651-7.924 19.838 0 27.435 7.87 7.597 20.658 7.597 28.473 0l504.376-484.428c3.826-3.607 5.902-8.58 5.902-13.717s-2.077-10.056-5.902-13.717l-504.376-484.374c-3.935-3.716-9.127-5.629-14.209-5.629z" />
<glyph unicode="&#xe60b;" glyph-name="user" d="M1004.321-85.333c-0.312 0-0.623 0-0.935 0h-983.708c-10.863 0-19.679 8.815-19.679 19.679v12.021c0 197.766 28.049 303.683 88.376 333.245 13.089 6.5 30.097 16.384 49.775 27.871 51.245 29.919 125.997 73.505 210.944 100.842-53.693 64.957-87.263 160.234-87.263 252.216 0 161.213 104.982 278.127 249.678 278.127 144.651 0 249.633-117.983 249.633-280.487 0-89.444-32.456-182.539-84.547-246.65 118.205-34.015 216.91-97.681 261.165-126.264 74.44-48.039 83.923-271.093 84.992-338.276l0.178-6.233c0.668-2.003 1.069-4.141 1.069-6.411 0-10.863-8.815-19.679-19.679-19.679zM39.357-45.931h943.95c-2.849 126.086-24.754 270.959-66.872 298.118-46.436 30.008-155.203 100.129-280.754 129.336-7.034 1.603-12.6 6.945-14.514 13.891-1.959 6.945 0.089 14.425 5.254 19.411 57.967 56.097 95.41 151.597 95.41 243.356 0 139.709-88.42 241.085-210.321 241.085s-210.321-100.397-210.321-238.726c0-92.516 39.179-192.156 97.503-247.942 5.165-4.897 7.257-12.243 5.476-19.144s-7.168-12.333-14.024-14.113c-92.516-24.398-176.573-73.416-232.181-105.917-20.614-12.021-38.422-22.305-52.224-29.117-29.963-14.737-65.581-77.112-66.382-290.237z" />
<glyph unicode="&#xe60c;" glyph-name="close-sm" d="M533.533 403.7l-301.904-302.665c-2.37-2.311-5.5-3.599-8.602-3.599s-6.173 1.287-8.514 3.599c-4.681 4.652-4.681 12.405 0 17.203l293.332 294.151-293.332 294.122c-4.681 4.74-4.681 12.434 0 17.174 4.681 4.681 12.347 4.681 17.115-0.059l301.904-302.753c4.681-4.681 4.681-12.317 0-17.174v0zM542.779 412.39l293.274-294.151c4.71-4.798 4.71-12.551 0-17.203-2.341-2.311-5.5-3.599-8.455-3.599-3.101 0-6.261 1.287-8.602 3.599l-301.875 302.665c-4.652 4.857-4.652 12.493 0 17.203l301.875 302.724c4.681 4.74 12.376 4.74 17.057 0.059 4.71-4.74 4.71-12.434 0-17.174l-293.274-294.122z" />
<glyph unicode="&#xe60d;" glyph-name="menu-notxt" d="M997.054 25.669h-964.725c-13.517 0-24.225-7.314-24.225-16.501 0-9.245 10.708-16.472 24.225-16.472h964.696c13.517 0 24.225 7.227 24.225 16.472 0.029 9.216-10.679 16.501-24.196 16.501zM996.791 421.635h-964.637c-13.546 0-24.225-7.285-24.225-16.472 0-9.275 10.679-16.501 24.225-16.501h964.637c13.517 0 24.225 7.227 24.225 16.501-0.029 9.187-10.708 16.472-24.225 16.472zM996.791 820.41h-964.637c-13.546 0-24.225-7.285-24.225-16.472 0-9.275 10.679-16.501 24.225-16.501h964.637c13.517 0 24.225 7.227 24.225 16.501-0.029 9.216-10.708 16.472-24.225 16.472z" />
<glyph unicode="&#xe60e;" d="M969.55 884.172c-26.090 26.134-60.817 40.47-97.814 40.47h-719.56c-76.221 0-138.195-62.063-138.195-138.195v-719.649c0-76.177 61.974-138.195 138.195-138.195h719.56c76.266 0 138.285 62.063 138.285 138.195v719.694c0.045 36.909-14.425 71.546-40.47 97.681zM685.368 735.247c0 42.785 34.727 77.512 77.601 77.512h57.656c42.83 0 77.512-34.727 77.512-77.512v-57.656c0-42.741-34.861-77.512-77.512-77.512h-57.656c-42.874 0-77.601 34.771-77.601 77.512v57.656zM976.273 66.842c0-57.611-46.926-104.493-104.537-104.493h-719.56c-57.611 0-104.537 46.881-104.537 104.493v344.776h200.615c7.969-139.13 122.657-250.212 263.702-250.212 141.134 0 255.911 111.082 263.747 250.212h200.57v-344.776z" />
<glyph unicode="&#xe60f;" d="M511.955 251.251c-96.657 0-175.371 78.67-175.371 175.371s78.759 175.371 175.371 175.371c96.79 0 175.46-78.67 175.46-175.371s-78.67-175.371-175.46-175.371z" />
<glyph unicode="&#xe610;" glyph-name="pinterest" d="M512 934.215c-280.309 0-507.548-227.239-507.548-507.548 0-215.040 133.788-398.737 322.605-472.643l34.638-12.288c47.549-14.692 97.992-22.662 150.305-22.662 280.309 0 507.592 227.239 507.592 507.592 0 280.309-227.283 507.548-507.592 507.548zM512-50.428c-46.614 0-91.492 7.123-134.099 19.501 18.254 32.145 38.155 72.081 46.926 105.606 6.099 23.819 31.566 120.743 31.566 120.743 16.562-31.61 64.868-58.279 116.246-58.279 153.11 0 263.391 140.778 263.391 315.659 0 167.669-136.815 293.131-312.854 293.131-219.002 0-335.338-147.1-335.338-307.2 0-74.351 39.624-167.135 102.979-196.519 9.661-4.452 14.781-2.627 17.007 6.723 1.647 6.99 10.24 41.494 14.069 57.567 1.202 5.12 0.668 9.572-3.517 14.514-20.925 25.466-37.754 72.259-37.754 115.846 0 111.928 84.769 220.249 229.198 220.249 124.661 0 211.879-84.947 211.879-206.492 0-137.305-69.276-232.359-159.477-232.359-49.775 0-87.129 41.138-75.153 91.67 14.336 60.371 42.073 125.418 42.073 169.049 0 38.957-20.925 71.413-64.245 71.413-50.888 0-91.804-52.625-91.804-123.236 0-44.922 15.226-75.286 15.226-75.286s-50.31-212.68-59.615-252.305c-7.524-32.634-7.257-74.93-4.764-111.037-169.895 73.060-289.080 241.397-289.080 438.094 0 263.435 213.571 477.050 477.050 477.050 263.391 0 477.050-213.615 477.050-477.050s-213.571-477.050-476.961-477.050z" />
<glyph unicode="&#xe611;" glyph-name="search" d="M1018.212-51.719l-354.838 355.64c133.254 149.504 128.801 379.592-14.381 523.13-71.814 71.947-167.313 111.616-268.867 111.616-101.599 0-197.098-39.624-268.911-111.616-148.257-148.614-148.257-390.411 0-539.025 71.814-71.992 167.313-111.616 268.911-111.616 95.544 0 185.478 35.439 255.599 99.506l354.66-355.462c3.829-3.829 8.904-5.788 13.935-5.788s10.062 1.959 13.891 5.743c7.702 7.702 7.747 20.168 0 27.871zM380.127 215.768c-91.047 0-176.662 35.573-241.041 100.085-132.942 133.254-132.942 350.119 0 483.373 64.378 64.512 149.994 100.085 241.041 100.085s176.662-35.573 241.041-100.085c132.942-133.254 132.942-350.119 0-483.373-64.378-64.512-149.994-100.085-241.041-100.085z" />
<glyph unicode="&#xe612;" glyph-name="shop" d="M678.289 383.926l-39.891 426.029c-6.5 44.522-41.272 128.712-126.397 128.712-85.215 0-119.986-84.547-126.531-130.182l-39.802-424.559c-6.634-4.719-11.398-11.843-12.199-20.213-1.469-15.85 10.952-29.785 27.782-31.21 16.829-1.38 31.655 10.329 33.124 26.134 0.801 8.415-2.538 16.161-8.192 21.905l39.669 423.669c0.623 3.918 15.182 96.211 86.15 96.211s85.482-91.804 86.016-94.742l39.802-425.138c-5.654-5.743-8.993-13.446-8.192-21.905 1.469-15.761 16.295-27.514 33.124-26.134 16.829 1.425 29.206 15.36 27.782 31.21-0.846 8.37-5.521 15.494-12.243 20.213zM1000.003-85.333h-975.961c-13.267 0-24.042 8.726-24.042 19.501v638.976c0 10.774 10.774 19.501 24.042 19.501h248.966c13.267 0 24.042-8.726 24.042-19.501s-10.774-19.501-24.086-19.501h-224.924v-599.975h927.967v599.975h-233.828c-13.312 0-24.042 8.726-24.042 19.501s10.73 19.501 24.042 19.501h257.825c13.267 0 23.953-8.726 23.953-19.501v-638.976c0-10.774-10.685-19.501-23.953-19.501z" />
<glyph unicode="&#xe613;" glyph-name="instagram-black" d="M894.925 938.667h-765.798c-71.322 0-129.126-57.805-129.126-129.126v-765.798c0-71.219 57.805-129.075 129.126-129.075h765.85c71.219 0 129.024 57.856 129.024 129.075v765.798c0 71.322-57.805 129.126-129.075 129.126zM512 576.683c82.739 0 150.016-67.277 150.016-150.016s-67.226-150.067-150.016-150.067c-82.739 0-150.016 67.277-150.016 150.067 0 82.739 67.277 150.016 150.016 150.016zM904.96 98.373c0-35.635-33.126-64.666-68.864-64.666h-645.683c-35.686 0-71.373 28.928-71.373 64.666v322.867c0 35.635 35.686 64.973 71.373 64.973h35.994c6.758 0 13.261-2.918 17.715-8.038 4.506-5.12 6.605-11.878 5.734-18.637-1.434-10.752-2.202-21.709-2.202-32.87 0-145.818 118.579-264.346 264.346-264.346s264.346 118.528 264.346 264.346c0 11.162-0.768 22.118-2.15 32.87-0.922 6.758 1.178 13.517 5.632 18.688 4.506 5.069 10.957 7.987 17.818 7.987h38.502c35.635 0 68.813-29.338 68.813-64.973v-322.867zM904.96 693.675v0c0-35.686-28.877-64.563-64.563-64.563h-61.389c-35.635 0-64.614 28.877-64.614 64.563v61.389c0 35.635 28.928 64.563 64.614 64.563h61.389c35.635 0 64.563-28.928 64.563-64.563v-61.389z" />
<glyph unicode="&#xe614;" glyph-name="pinterest-black" d="M512 938.667c-282.778 0-512-229.222-512-512 0-216.883 134.963-402.176 325.427-476.774-4.506 40.448-8.55 102.656 1.741 146.842 9.318 39.936 60.058 254.515 60.058 254.515s-15.309 30.669-15.309 76.032c0 71.168 41.267 124.314 92.621 124.314 43.674 0 64.819-32.768 64.819-72.090 0-43.93-28.006-109.67-42.445-170.496-12.032-50.944 25.6-92.57 75.827-92.57 90.982 0 160.973 95.949 160.973 234.547 0 122.573-88.115 208.282-213.862 208.282-145.715 0-231.219-109.261-231.219-222.208 0-43.981 16.947-91.187 38.144-116.838 4.147-5.069 4.762-9.523 3.533-14.694-3.891-16.179-12.544-50.944-14.234-58.061-2.202-9.37-7.424-11.366-17.101-6.861-63.949 29.798-103.936 123.29-103.936 198.349 0 161.536 117.35 309.862 338.278 309.862 177.664 0 315.648-126.566 315.648-295.731 0-176.435-111.258-318.464-265.626-318.464-51.917 0-100.659 26.982-117.35 58.829 0 0-25.651-97.792-31.898-121.702-11.571-44.493-42.752-100.25-63.642-134.246 47.872-14.848 98.765-22.835 151.552-22.835 282.778 0 512 229.222 512 512s-229.222 512-512 512z" />
<glyph unicode="&#xe615;" glyph-name="TW-black" d="M1024 738.27c-37.683-16.64-78.182-27.853-120.678-32.922 43.469 25.856 76.698 66.816 92.416 115.61-40.55-23.91-85.504-41.318-133.376-50.688-38.4 40.602-92.979 65.997-153.395 65.997-116.019 0-210.125-93.594-210.125-208.947 0-16.384 1.894-32.358 5.478-47.616-174.592 8.755-329.421 91.955-433.050 218.317-18.074-30.874-28.416-66.714-28.416-105.011 0-72.499 37.069-136.448 93.44-173.926-34.406 1.075-66.816 10.445-95.13 26.112-0.051-0.87-0.051-1.792-0.051-2.611 0-101.222 72.448-185.702 168.55-204.851-17.664-4.864-36.198-7.373-55.347-7.373-13.568 0-26.726 1.28-39.526 3.789 26.726-83.046 104.294-143.514 196.25-145.152-71.936-56.064-162.509-89.395-260.915-89.395-16.947 0-33.69 0.973-50.125 2.867 92.979-59.238 203.418-93.85 322.048-93.85 386.406 0 597.709 318.413 597.709 594.483 0 9.062-0.205 18.074-0.563 27.034 41.011 29.44 76.646 66.304 104.806 108.134z" />
<glyph unicode="&#xe616;" glyph-name="FB-black" d="M967.475 938.667h-910.95c-31.232 0-56.525-25.293-56.525-56.525v-910.95c0-31.232 25.293-56.525 56.525-56.525h490.445v396.544h-133.478v154.522h133.427v113.971c0 132.301 80.742 204.288 198.81 204.288 56.474 0 105.062-4.198 119.245-6.093v-138.189l-81.92-0.051c-64.154 0-76.595-30.515-76.595-75.213v-98.714h153.037l-19.917-154.522h-133.171v-396.544h261.018c31.283 0 56.576 25.293 56.576 56.525v910.95c0 31.232-25.293 56.525-56.525 56.525z" />
<glyph unicode="&#xe617;" glyph-name="link" d="M265.479 569.442c18.695 18.695 39.351 34.055 61.352 46.139 122.617 67.643 279.815 31.685 358.693-87.83l-95.291-95.437c-27.414 62.493-95.349 97.924-162.875 82.798-25.483-5.647-49.649-18.315-69.398-38.093l-182.857-182.857c-55.472-55.53-55.472-145.818 0-201.289 55.472-55.501 145.847-55.501 201.318 0l56.408 56.291c51.229-20.304 106.233-28.409 160.475-24.313l-124.46-124.431c-106.613-106.672-279.523-106.672-386.136 0-106.701 106.672-106.701 279.523 0 386.194l182.769 182.828zM555.856 859.79l-124.431-124.401c54.243 4.067 109.217-4.096 160.475-24.43l56.408 56.437c55.472 55.472 145.788 55.472 201.289 0 55.589-55.501 55.589-145.847 0-201.348l-182.769-182.828c-55.706-55.706-146.11-55.296-201.377 0-12.844 12.815-23.991 28.848-30.837 44.588l-95.437-95.408c10.035-15.155 20.421-28.292 33.851-41.691 34.494-34.523 78.409-60.24 128.965-72.324 65.477-15.799 135.665-7.080 195.877 26.214 22.089 12.054 42.686 27.414 61.352 46.080l182.828 182.828c106.672 106.642 106.672 279.611 0 386.253-106.672 106.701-279.552 106.701-386.194 0.029z" />
<glyph unicode="&#xe618;" glyph-name="gplus" d="M1019.494 714.031h-134.817v-135.314h-67.291v135.314h-134.817v67.584h134.788v135.227h67.291v-135.256h134.817v-67.555zM638.508 154.605c0-101.347-92.189-224.812-324.198-224.812-169.662 0-311.15 73.465-311.15 196.959 0 95.437 60.123 219.195 341.197 219.195-41.838 34.202-52.048 81.92-26.507 133.617-164.571 0-248.803 97.075-248.803 220.423 0 120.656 89.381 230.371 271.682 230.371h292.045l-65.243-68.754h-76.683c54.126-31.13 82.856-95.232 82.856-165.771 0-64.834-35.547-117.321-86.309-156.672-90.053-69.925-67.028-108.954 27.326-177.942 93.096-69.925 123.787-123.963 123.787-206.614zM456.382 691.444c-13.605 103.746-80.925 188.884-159.627 191.195-78.702 2.399-131.511-77.005-117.877-180.78 13.575-103.746 88.357-176.245 167.117-178.644 78.643-2.37 123.904 64.453 110.387 168.229zM537.483 144.248c0 85.255-77.561 166.619-207.667 166.619-117.233 1.317-216.678-74.401-216.678-162.055 0-89.527 84.699-164.045 202.021-164.045 149.914 0 222.325 69.925 222.325 159.481z" />
<glyph unicode="&#xe619;" glyph-name="thumbs" d="M1000.331-81.208h-420.396c-10.767 0-19.485 8.748-19.485 19.544v420.454c0 10.796 8.719 19.485 19.485 19.485h420.396c10.796 0 19.544-8.689 19.544-19.485v-420.454c0-10.825-8.719-19.544-19.544-19.544zM599.42-42.12h381.425v381.367h-381.425v-381.367zM444.123-81.208h-420.396c-10.825 0-19.544 8.748-19.544 19.544v420.454c0 10.796 8.748 19.485 19.544 19.485h420.425c10.796 0 19.515-8.689 19.515-19.485v-420.454c-0.029-10.825-8.748-19.544-19.544-19.544zM43.242-42.12h381.396v381.367h-381.396v-381.367zM1000.331 475.058h-420.396c-10.767 0-19.485 8.719-19.485 19.515v420.425c0 10.767 8.719 19.515 19.485 19.515h420.396c10.796 0 19.544-8.748 19.544-19.515v-420.454c0-10.767-8.719-19.485-19.544-19.485zM599.42 514.087h381.425v381.367h-381.425v-381.367zM444.123 475.058h-420.396c-10.825 0-19.544 8.719-19.544 19.515v420.425c0 10.767 8.748 19.515 19.544 19.515h420.425c10.796 0 19.515-8.748 19.515-19.515v-420.454c-0.029-10.767-8.748-19.485-19.544-19.485zM43.242 514.087h381.396v381.367h-381.396v-381.367z" />
<glyph unicode="&#xe61a;" glyph-name="close" d="M24.898-77.2c-4.915 0-9.83 1.872-13.634 5.617-7.461 7.519-7.461 19.749 0 27.268l467.266 467.822-467.266 467.792c-7.461 7.519-7.461 19.69 0 27.238 7.519 7.519 19.719 7.519 27.238-0.029l480.841-481.426c7.548-7.49 7.548-19.69 0-27.238l-480.841-481.368c-3.745-3.774-8.689-5.676-13.605-5.676zM987.692-77.2c-4.915 0-9.86 1.872-13.575 5.647l-480.87 481.397c-7.49 7.519-7.49 19.719 0 27.238l480.87 481.426c7.519 7.548 19.719 7.49 27.238 0.029 7.49-7.548 7.49-19.719 0-27.238l-467.295-467.792 467.295-467.822c7.49-7.519 7.49-19.749 0-27.268-3.745-3.716-8.689-5.617-13.663-5.617z" />
<glyph unicode="&#xe61b;" glyph-name="slideshow" d="M224.753-84.075c-2.75 0-5.5 0.644-8.133 1.872-6.7 3.248-11.030 10.211-11.030 17.818v982.104c0 7.607 4.301 14.541 11.030 17.818 6.7 3.248 14.687 2.136 20.392-2.779l574.581-491.023c4.359-3.686 6.846-9.245 6.846-15.097 0-5.822-2.487-11.381-6.846-15.097l-574.581-491.023c-3.569-2.984-7.899-4.593-12.259-4.593zM243.888 875.793v-898.253l525.488 449.126-525.488 449.126z" />
<glyph unicode="&#xe61c;" glyph-name="FBM-black" d="M512 928.368c-276.626 0-501.701-225.046-501.701-501.701 0-109.744 35.46-211.383 95.554-294.122l-62.669-186.339 192.805 61.733c79.228-52.312 174.109-83.003 276.041-83.003 276.626 0 501.701 225.075 501.701 501.701-0.029 276.685-225.104 501.731-501.731 501.731zM561.62 298.696l-117.994 120.803-218.697-120.803 240.289 256.088 115.127-116.56 218.697 116.56-237.422-256.088z" />
<glyph unicode="&#xe61d;" glyph-name="WA-black" d="M512 928.398c-276.656 0-501.731-225.075-501.731-501.731 0-109.802 35.46-211.529 95.525-294.151l-62.61-186.397 192.775 61.762c79.287-52.4 174.139-82.915 276.070-82.915 276.626 0 501.701 225.017 501.701 501.701-0.029 276.656-225.104 501.731-501.731 501.731zM772.564 242.376c-10.796-30.281-53.482-55.267-87.362-62.698-23.435-5.091-53.775-8.865-156.116 33.441-131.043 54.331-215.274 187.363-221.74 195.994-6.466 8.689-53.043 70.393-53.043 134.261 0 63.956 32.475 95.027 45.466 108.281 10.679 10.942 28.35 15.945 45.466 15.945 5.354 0 10.299-0.205 14.833-0.439 13.253-0.614 19.807-1.287 28.409-21.972 10.796-26.010 36.776-89.878 40.024-96.373 3.277-6.495 6.173-15.448 1.872-24.108-4.33-8.66-7.958-12.698-14.453-20.304-6.524-7.578-12.639-13.371-19.339-21.416-5.822-7.080-12.756-14.804-5.179-27.794s33.616-55.472 72.265-89.907c49.562-44.237 90.024-58.339 104.419-64.453 10.854-4.564 23.611-3.423 31.481 4.915 10.064 10.679 22.235 28.643 34.845 46.051 9.128 12.756 20.129 14.014 32.124 9.713 11.878-4.33 75.717-35.723 88.678-42.218s21.592-9.713 24.869-15.155c3.335-5.413 3.335-31.422-7.519-61.762z" />
<glyph unicode="&#xe61e;" glyph-name="WA" d="M627.215 212.3c-25.776 0-60.24 9.509-111.762 30.808-66.501 27.589-132.242 85.109-185.022 161.938-15.623 21.094-47.748 69.427-47.748 120.481 0 56.32 28.145 85.021 40.141 97.251 11.732 11.995 28.935 18.286 48.216 18.286 4.506 0 8.631-0.146 12.347-0.38 17.086-0.761 27.121-5.149 36.133-26.741l11.030-26.77c9.070-22.060 19.28-47.075 21.182-50.82 5.881-11.761 6.407-22.704 1.492-32.446-4.155-8.338-7.899-12.61-12.961-18.637-3.218-3.833-5.793-6.466-8.251-9.128-2.633-2.779-5.266-5.588-8.046-8.982-1.58-1.902-3.365-4.096-3.657-4.974 7.987-13.751 27.941-45.378 56.788-71.153 34.816-31.042 63.429-42.774 77.18-48.333l4.037-1.726c3.101-1.258 6.846-2.282 9.655 0.673 5.822 6.144 13.049 16.325 20.714 27.092l6.554 9.040c9.275 12.873 20.597 15.682 28.409 15.682 4.476 0 9.245-0.936 14.102-2.75 12.054-4.301 73.289-34.757 73.933-35.109l5.676-2.721c9.011-4.389 16.091-7.87 20.363-15.038 7.139-11.644 2.75-40.931-4.915-62.464-10.737-30.223-49.181-53.219-81.598-60.328-6.758-1.463-14.248-2.75-23.991-2.75zM511.971-77.989c-96.315 0-189.791 27.297-270.746 78.936l-179.668-57.578c-6.056-1.989-12.785-0.234-17.349 4.33-4.506 4.506-6.085 11.323-4.008 17.379l58.163 172.88c-59.538 84.963-91.019 184.642-91.019 288.68 0 278.265 226.392 504.656 504.627 504.656 278.323 0 504.686-226.392 504.686-504.656s-226.363-504.627-504.686-504.627zM243.741 36.816c3.306 0 6.612-1.024 9.392-2.896 76.946-50.907 166.502-77.795 258.809-77.795 259.511 0 470.543 211.090 470.543 470.543s-211.032 470.513-470.543 470.513c-259.394 0-470.455-211.061-470.455-470.513 0-99.767 30.983-195.145 89.585-275.866 3.277-4.476 4.096-10.269 2.37-15.448l-50.117-149.124 155.209 49.737c1.726 0.497 3.482 0.848 5.208 0.848z" />
<glyph unicode="&#xe61f;" glyph-name="FBM" d="M556.412 312.242l-105.472 108.047-195.555-108.047 214.777 228.908 102.927-104.185 195.525 104.185zM512-74.157c-95.612 0-188.357 27.121-268.698 78.438l-178.322-57.168c-6.027-1.96-12.698-0.234-17.174 4.301-4.506 4.476-6.085 11.147-4.008 17.232l57.695 171.564c-59.099 84.348-90.317 183.267-90.317 286.457 0 276.187 224.666 500.824 500.824 500.824 276.129 0 500.853-224.636 500.853-500.824s-224.724-500.824-500.853-500.824zM245.76 39.8c3.306 0 6.583-0.995 9.333-2.896 76.361-50.498 165.244-77.21 256.878-77.21 257.492 0 467.003 209.452 467.003 466.944 0 257.521-209.51 466.944-467.003 466.944-257.434 0.029-466.915-209.393-466.915-466.915 0-98.977 30.72-193.624 88.942-273.759 3.218-4.418 4.037-10.123 2.341-15.243l-49.766-148.041 154.039 49.328c1.726 0.497 3.452 0.848 5.149 0.848z" />
<glyph unicode="&#xe620;" glyph-name="play" d="M296.316-79.072v1011.478l606.881-505.739z" />
<glyph unicode="&#xe621;" glyph-name="cross" d="M216.123 417.802c-1.463 1.434-2.37 3.452-2.37 5.705 0 4.418 3.628 8.016 8.046 8.046l276.334 0.146 0.146 276.304c0.029 4.447 3.628 8.046 8.046 8.046 4.447 0 8.046-3.628 8.046-8.046l-0.176-284.35c0-4.447-3.599-8.046-8.046-8.046l-284.321-0.146c-2.253 0-4.242 0.878-5.705 2.341zM500.619 133.306c-1.463 1.463-2.37 3.452-2.341 5.676l0.146 284.35c0 4.447 3.628 8.046 8.046 8.046l284.35 0.146c4.447 0 8.016-3.628 8.046-8.046 0-4.447-3.599-8.016-8.016-8.046l-276.334-0.146-0.146-276.334c0-4.418-3.628-8.046-8.046-8.046-2.224 0.029-4.242 0.907-5.705 2.399z" />
<glyph unicode="&#xe622;" glyph-name="left-arrow" horiz-adv-x="561" d="M532.769 930.414c5.247 0 10.33-1.913 14.319-5.684 7.925-7.597 7.925-19.785 0-27.436l-490.248-470.627 490.248-470.681c7.925-7.652 7.925-19.839 0-27.436s-20.659-7.597-28.475 0l-504.403 484.454c-3.826 3.553-5.903 8.526-5.903 13.718 0 5.137 2.077 10.056 5.903 13.718l504.403 484.345c3.88 3.716 9.073 5.629 14.155 5.629z" />
<glyph unicode="&#xe623;" horiz-adv-x="4096" d="M2604.851 599.43c-6.934 61.060-34.582 91.633-82.885 91.633-25.805 0-45.67-9.128-59.597-27.414-13.926-18.256-20.86-40.17-20.86-65.741 0-25.6 4.272-45.027 12.873-58.28 8.602-13.312 22.528-24.927 41.779-34.875l80.428-44.822c27.443-15.272 49.24-36.191 65.419-62.757 16.179-26.595 24.225-63.956 24.225-112.084 0-48.157-12.668-88.678-38.064-121.534-25.395-32.885-59.363-49.328-101.961-49.328-42.569 0-77.444 17.437-104.682 52.312-27.238 34.845-41.253 83.822-42.072 146.929h47.28c0-41.194 8.894-72.733 26.712-94.647 17.788-21.884 40.726-32.885 68.784-32.885 28.028 0 50.264 10.123 66.648 30.398 16.355 20.246 24.547 44.149 24.547 71.709s-5.003 49.328-15.038 65.243-24.898 29.228-44.529 39.848l-68.14 40.843c-31.949 17.262-56.115 37.859-72.499 61.791-16.413 23.874-24.576 58.924-24.576 105.092 0 46.139 11.469 84.67 34.377 115.566 22.938 30.896 55.091 46.314 96.461 46.314 41.34 0 72.938-14.804 94.852-44.325 21.914-29.55 34.523-69.252 37.771-119.047h-47.25z" />
<glyph unicode="&#xe624;" horiz-adv-x="4096" d="M2819.189 751.86v-275.953h189.733v275.953h48.538v-626.6h-48.538v282.917h-189.733v-282.917h-48.538v626.6h48.538z" />
<glyph unicode="&#xe625;" horiz-adv-x="4096" d="M3317.848 762.802c49.942 0 90.375-27.765 121.3-83.178 30.925-55.472 46.373-136.133 46.373-242.103 0-105.911-15.36-186.28-46.051-241.079-30.691-54.769-71.27-82.183-121.593-82.183s-90.814 27.736-121.3 83.178c-30.515 55.472-45.7 135.665-45.7 240.611 0 105.589 15.214 186.105 45.7 241.576 30.457 55.442 70.949 83.178 121.271 83.178zM3317.848 692.088c-36.045 0-64.512-21.943-85.372-65.77-20.89-43.798-31.305-106.935-31.305-189.235 0-82.359 10.416-144.823 31.305-187.304 20.86-42.511 49.328-63.781 85.372-63.781 35.986 0 64.6 21.27 85.694 63.781 21.094 42.481 31.627 104.945 31.627 187.304 0 82.3-10.533 145.437-31.627 189.235-21.094 43.827-49.679 65.77-85.694 65.77z" />
<glyph unicode="&#xe626;" horiz-adv-x="4096" d="M3799.040 699.548c22.323-34.845 33.47-81.861 33.47-140.961 0-59.129-11.147-105.765-33.47-139.966-22.323-34.231-54.769-51.288-97.339-51.288h-76.156v-242.074h-48.538v626.6h124.694c42.569 0 75.015-17.467 97.339-52.312zM3701.672 435.035c26.595 0 46.782 10.971 60.475 32.885 13.722 21.943 20.568 51.961 20.568 90.171s-6.846 68.754-20.568 91.633c-13.722 22.938-33.88 34.377-60.475 34.377h-76.156v-249.066h76.156z" />
<glyph unicode="&#xe627;" horiz-adv-x="4096" d="M1435.677 738.753h205.005c-48.947-205.122-98.245-409.98-147.163-615.131h58.075c6.554 0 12.932-0.41 18.725 0.614 20.86 3.95 35.255 17.203 45.202 33.441 10.006 16.296 16.238 36.923 18.725 60.913 2.516 24.4 0.907 51.376 1.492 78.848h6.466v-181.658h-211.295c47.66 205.21 95.408 410.331 143.272 615.336h-56.32c-6.232 0-12.522 0.468-18.081-0.673-19.28-3.862-31.481-20.568-39.351-36.952-8.163-16.911-13.78-37.478-16.56-60.679-2.809-23.055-1.551-49.386-2.399-75.542-1.989 0.117-3.511-0.38-5.559-0.205-1.024 59.421-0.176 120.744-0.439 181.043-0.029 0.293-0.029 0.644 0.205 0.644z" />
<glyph unicode="&#xe628;" horiz-adv-x="4096" d="M1797.325 738.753h111.265v-7.636h-26.214c0.263-202.313 0.176-404.919 0.176-607.495 8.309-0.527 17.467-0.117 26.068-0.293v-7.548h-111.47v7.607h26.273v607.759h-26.273v6.963c-0.029 0.293-0.029 0.644 0.176 0.644z" />
<glyph unicode="&#xe629;" horiz-adv-x="4096" d="M769.872 730.444v-301.056c17.613-1.317 30.486 4.535 40.258 12.961 9.743 8.455 17.232 18.783 22.352 31.803 10.152 25.717 14.365 59.538 16.355 93.213 1.053 17.525 1.287 36.191-0.614 52.634-3.745 32.271-11.644 61.147-24.752 84.465-6.056 10.796-14.395 24.283-27.531 26.478-7.987 1.258-17.788-0.556-25.805 0.176-0.263-0.029-0.263-0.322-0.263-0.673zM685.319 738.753h114.483c12.756 0 24.079-0.527 34.202-4.037 18.315-6.349 32.505-19.632 43.008-34.728 21.124-30.281 32.68-73.757 30.574-126.566-0.995-24.049-5.237-48.304-10.971-67.906-5.822-19.778-14.365-38.385-25.834-52.604-9.684-12.083-22.528-23.698-42.598-25.103-2.458-0.146-5.647 0.468-7.753-1.814 1.902-3.365 6.085-2.165 8.631-2.458 9.626-1.083 16.735-4.886 23.464-9.626 8.719-6.173 15.653-13.839 21.943-22.645 3.277-4.564 6.144-8.982 8.368-14.102 2.311-5.208 3.569-10.942 4.74-17.671 2.194-12.522 3.394-25.951 4.301-41.019 2.633-41.896 2.136-88.386 5.383-130.809 1.024-13.312 1.96-29.023 6.671-38.502 2.077-4.184 6.29-7.373 11.205-8.046 9.275-1.317 15.097 8.397 18.695 14.512 0.234 0.41 1.053 2.867 2.165 1.375 2.282-0.673 0.41-3.95-0.205-5.588-4.857-13.429-12.815-26.975-22.996-34.757-6.495-4.857-14.833-8.28-24.781-7.841-9.275 0.41-16.179 4.857-21.943 10.503-10.825 10.562-17.73 26.507-21.504 44.559-3.803 18.169-3.95 39.936-4.915 61.82-1.434 31.364-0.79 66.677-2.37 98.158-0.497 10.24-2.165 20.129-3.862 29.316-3.423 18.344-8.426 36.396-16.384 50-4.067 6.905-9.128 13.458-17.174 15.653-8.016 2.165-18.256 2.633-29.696 2.487-0.527-98.772-0.059-198.539-0.234-297.75h25.834c0.965-1.726 0.146-5.325 0.439-7.841h-114.659v7.841h29.403c-0.146 202.459 0.263 405.475-0.234 607.525h-25.6v7.051c-0.029 0.263-0.029 0.614 0.205 0.614z" />
<glyph unicode="&#xe62a;" horiz-adv-x="4096" d="M436.751 421.342c-9.099 0.497-19.134 0.088-28.613 0.234-0.848 1.638-0.439 5.764-0.176 7.812h117.643v-7.812h-29.462c-0.38-101.113-0.234-203.776-0.205-305.562 0-1.2 0.497-3.54-0.644-4.067-0.38 0.41-1.96-0.41-2.809 0-0.673 0.41-1.229 3.95-1.521 4.974-1.755 7.197-2.984 14.219-5.383 20.129-3.043 7.607-7.665 15.477-19.339 14.16-8.485-1.024-15.389-7.929-20.685-12.815-11.293-10.181-22.44-23.757-37.215-29.989-8.251-3.54-19.134-3.248-28.818-1.141-18.11 4.008-30.983 13.429-41.955 24.927-21.797 22.674-35.343 54.331-46.46 88.912-11.352 35.138-17.876 73.143-22.587 113.547-4.71 40.58-7.051 87.42-4.067 130.809 2.926 42.335 9.187 82.71 17.467 119.164 8.221 36.484 19.368 70.89 35.255 100.586 7.636 14.277 16.472 28.175 27.97 39.409 11.586 11.264 25.659 21.504 44.793 22.85 19.895 1.434 30.193-5.5 38.678-15.887 5.296-6.495 9.626-15.214 19.134-17.496 14.629-3.511 19.807 10.796 22.148 22.616 0.205 0.878 0.527 2.487 0.878 3.774 0.234 1.053-0.059 3.043 2.136 2.282 2.721 0.585 1.668-3.365 1.755-5.413 2.955-68.462 5.032-137.128 8.163-206.087 0.029-0.761 0.351-2.311 0.234-3.365-0.088-0.614 0.497-2.545-1.317-2.019-2.282-0.79-2.165 1.668-2.37 2.692-1.96 10.445-3.482 22.411-5.149 33.382-5.822 38.005-12.99 75.279-23.464 108.222-6.758 21.182-15.536 43.242-29.462 57.754-6.583 6.817-17.671 15.184-29.901 12.317-10.62-2.399-16.238-12.99-20.89-22.382-9.421-19.105-15.301-42.686-20.217-67.438-4.886-24.956-8.485-50.82-11.381-76.624-3.013-26.507-5.413-53.628-6.7-81.51-1.258-27.882-3.482-56.671-2.136-86.25 1.317-29.199 1.58-57.285 3.657-84.67 4.067-54.272 9.040-107.783 23.025-153.015 3.335-10.854 7.285-22.001 12.493-31.364 4.886-8.923 12.405-18.637 22.148-21.094 12.932-3.189 22.294 6.173 27.531 14.336 5.822 9.128 9.187 20.451 11.82 31.832 5.5 23.611 6.027 52.692 6.027 82.242v177.035z" />
<glyph unicode="&#xe62b;" horiz-adv-x="4096" d="M1116.365 304.606h83.032c-13.4 80.808-26.331 162.114-40.229 242.395-14.014-81.013-28.731-161.353-42.803-242.395zM1186.962 746.623c34.933-207.696 69.252-416.124 104.126-623.879h23.201c0.995-1.726 0.176-5.325 0.439-7.841h-108.456v7.841h23.493c-9.362 57.432-19.515 115.946-29.286 173.612-28.175 0.585-57.285 0.117-85.84 0.234-10.269-57.783-20.304-115.946-30.544-173.817h30.34v-7.841h-65.624v7.607c8.543 0.059 16.735 0.351 25.366 0.234 37.947 207.55 74.957 416.154 112.786 623.85z" />
<glyph unicode="&#xe62c;" horiz-adv-x="4096" d="M2093.173 305.513h83.032c-13.429 80.808-26.39 162.055-40.258 242.425-14.073-81.042-28.76-161.382-42.774-242.425zM2163.683 747.501c34.933-207.667 69.281-416.154 104.126-623.879h23.464v-7.841h-108.222v7.841h23.493c-9.362 57.432-19.456 115.946-29.257 173.612-28.145 0.585-57.198 0.059-85.665 0.234-10.708-57.432-20.421-116.005-30.779-173.817h30.398c-0.146-2.516 0.293-5.647-0.234-7.841h-65.419v7.607c8.572 0.059 16.706 0.351 25.424 0.234 37.829 207.579 74.869 416.212 112.669 623.85z" />
<glyph unicode="&#xe62d;" glyph-name="star" d="M512 889.925l150.528-305.006 336.574-48.889-243.536-237.422 57.49-335.199-301.056 158.252-301.027-158.252 57.49 335.199-243.536 237.422 336.574 48.889 150.499 305.006zM394.445 542.935l-262.788-38.21 190.171-185.315-44.88-261.764 235.052 123.641 235.081-123.641-44.91 261.764 190.171 185.315-262.758 38.21-117.584 238.153-117.555-238.153z" />
<glyph unicode="&#xe900;" glyph-name="hotornot-not" horiz-adv-x="1214" d="M607.225-85.333c-26.614 0-52.672 10.879-71.444 29.853l-442.731 446.931c-60.009 60.515-93.050 141.016-93.050 226.628s33.040 166.113 93.050 226.679c59.857 60.515 139.6 93.859 224.503 93.859 63.045 0 124.015-18.62 176.435-53.836 2.226-1.316 5.262-3.238 8.247-5.515l12.953-9.816c17.001-13.054 55.809-43.312 91.835-75.593 24.641 22.111 54.393 46.499 90.216 74.075l15.179 11.587c3.086 2.328 6.426 4.604 9.765 6.477 50.497 34.103 111.467 52.672 174.613 52.672 84.853 0 164.544-33.293 224.553-93.758 59.958-60.566 92.999-141.067 92.999-226.679s-33.040-166.113-93.050-226.628l-442.63-447.083c-19.025-19.278-44.425-29.853-71.444-29.853zM317.552 888.018c-71.292 0-138.233-28.031-188.528-78.882-50.598-51.003-78.427-118.854-78.427-191.058s27.829-140.004 78.376-191.007l442.731-446.982c18.822-18.924 52.217-18.924 70.938 0l442.63 447.133c50.648 51.003 78.477 118.804 78.477 191.007 0 72.153-27.879 140.055-78.427 191.058-50.345 50.8-117.286 78.781-188.528 78.781-53.027 0-104.232-15.635-148.049-45.133l-17.962-13.105c-45.336-34.862-80.248-64.057-106.306-88.698l-17.102-16.191-28.082 25.805c-36.329 33.040-77.415 65.119-93.404 77.364l-13.965 10.626c-1.872 1.417-3.491 2.378-5.161 3.39-45.032 30.258-96.288 45.892-149.213 45.892zM634.801-69.344l-48.726 13.611 101.803 363.596-213.725 177.953 112.631 295.34 47.258-18.063-99.728-261.54 211.044-175.828z" />
<glyph unicode="&#xe901;" glyph-name="hotornot-hot" horiz-adv-x="1214" d="M607.225-85.333c-26.614 0-52.672 10.879-71.444 29.853l-442.731 446.931c-60.009 60.515-93.050 141.016-93.050 226.628s33.040 166.113 93.050 226.679c59.857 60.515 139.6 93.859 224.503 93.859 63.045 0 124.015-18.62 176.435-53.836 2.226-1.316 5.262-3.238 8.247-5.515l12.953-9.816c17.001-13.054 55.809-43.312 91.835-75.593 24.641 22.111 54.393 46.499 90.216 74.075l15.179 11.587c3.086 2.328 6.426 4.604 9.765 6.477 50.497 34.103 111.467 52.672 174.613 52.672 84.853 0 164.544-33.293 224.553-93.758 59.958-60.566 92.999-141.067 92.999-226.679s-33.040-166.113-93.050-226.628l-442.63-447.083c-19.025-19.278-44.425-29.853-71.444-29.853zM317.552 888.018c-71.292 0-138.233-28.031-188.528-78.882-50.598-51.003-78.427-118.854-78.427-191.058s27.829-140.004 78.376-191.007l442.731-446.982c18.822-18.924 52.217-18.924 70.938 0l442.63 447.133c50.648 51.003 78.477 118.804 78.477 191.007 0 72.153-27.879 140.055-78.427 191.058-50.345 50.8-117.286 78.781-188.528 78.781-53.027 0-104.232-15.635-148.049-45.133l-17.962-13.105c-45.336-34.862-80.248-64.057-106.306-88.698l-17.102-16.191-28.082 25.805c-36.329 33.040-77.415 65.119-93.404 77.364l-13.965 10.626c-1.872 1.417-3.491 2.378-5.161 3.39-45.032 30.258-96.288 45.892-149.213 45.892z" />
</font>
</defs>
</svg>
